<svg xmlns="http://www.w3.org/2000/svg">
<defs>
<font
       id="FontID1"
       horiz-adv-x="667"
       font-variant="normal"
       font-style="normal"
       font-weight="400"
       horiz-origin-x="0"
       horiz-origin-y="0"
       vert-origin-x="45"
       vert-origin-y="90"
       vert-adv-y="90"
       style="font-style:normal;font-variant:normal;font-weight:400"><font-face
         font-family="Arial"
         id="font-face7"><font-face-src><font-face-name
             name="Arial" /></font-face-src></font-face><missing-glyph
         id="missing-glyph9"><path
           d="M0 0z"
           id="path11" /></missing-glyph><glyph
         unicode="р"
         horiz-adv-x="556"
         d="M65.9997 -199.003l0 718.001 79.9957 0 0 -68.1611c18.8385,26.3267 40.1691,46.1573 64.0037,59.3265 23.6692,13.1692 52.4998,19.8424 86.3382,19.8424 44.3266,0 83.3264,-11.3385 117.165,-34.1692 33.8266,-22.6653 59.3265,-54.8384 76.6651,-96.165 17.1613,-41.5038 25.8306,-86.8343 25.8306,-136.334 0,-52.8423 -9.49603,-100.5 -28.4999,-143.007 -19.0039,-42.3305 -46.6652,-74.8344 -82.9957,-97.4996 -36.1652,-22.4999 -74.3383,-33.8266 -114.33,-33.8266 -29.3385,0 -55.6769,6.16533 -78.8383,18.496 -23.3385,12.3307 -42.3305,27.8385 -57.3305,46.6652l0 -253.168 -88.0036 0zm79.9957 455.337c0,-66.4958 13.4999,-115.665 40.3345,-147.495 26.9999,-31.8424 59.6691,-47.8345 98.0075,-47.8345 38.9998,0 72.3304,16.4999 99.9917,49.4998 27.8385,32.9999 41.6691,83.9997 41.6691,153.165 0,65.9997 -13.4999,115.334 -40.6652,148.169 -27.1652,32.8345 -59.5037,49.1573 -97.1689,49.1573 -37.3345,0 -70.3344,-17.4921 -98.9996,-52.3226 -28.8306,-35.0077 -43.1691,-85.6768 -43.1691,-152.338z"
         id="glyph13" /><glyph
         unicode="0"
         horiz-adv-x="556"
         d="M41.9998 353.337c0,84.4957 8.66926,152.834 25.996,204.495 17.5039,51.8384 43.3345,91.665 77.669,119.503 34.1692,27.8267 77.3383,41.6691 129.33,41.6691 38.3384,0 71.9997,-7.67714 101.173,-23.1731 28.9959,-15.496 52.9959,-37.8306 71.669,-67.0037 18.6613,-28.9959 33.3306,-64.4997 43.9959,-106.322 10.8307,-41.8345 16.1692,-98.3382 16.1692,-169.169 0,-83.9997 -8.66926,-152.007 -25.8306,-203.668 -17.1732,-51.8384 -43.0038,-91.665 -77.3383,-119.669 -34.1692,-28.0038 -77.5036,-41.9998 -129.838,-41.9998 -68.8226,0 -123,24.496 -162.33,73.6651 -47.1612,59.9998 -70.6651,157.169 -70.6651,291.672zm89.9996 -0.342518c0,-117.826 13.6653,-196.157 41.1731,-234.826 27.496,-38.8345 61.4998,-58.1691 101.822,-58.1691 40.3345,0 74.3383,19.4999 101.834,58.3344 27.5078,38.9998 41.1731,117.165 41.1731,234.66 0,117.838 -13.6653,196.169 -41.1731,234.838 -27.3306,38.8345 -61.6651,58.1691 -102.826,58.1691 -40.3345,0 -72.6729,-17.1732 -96.8382,-51.3305 -30.1652,-43.4998 -45.1652,-124.169 -45.1652,-241.676z"
         id="glyph15" /><glyph
         unicode="н"
         horiz-adv-x="552"
         d="M65.9997 518.998l88.0036 0 0 -215.999 243.991 0 0 215.999 88.0036 0 0 -518.998 -88.0036 0 0 229.995 -243.991 0 0 -229.995 -88.0036 0 0 518.998z"
         id="glyph17" /><glyph
         unicode="-"
         horiz-adv-x="332"
         d="M31.0038 214.995l0 88.0036 271.995 0 0 -88.0036 -271.995 0z"
         id="glyph19" /><glyph
         unicode="к"
         horiz-adv-x="437"
         d="M64.9958 518.998l88.0036 0 0 -223.995c28.0038,0 47.6691,5.32675 58.9958,16.1692 11.1732,10.6653 27.6731,41.8227 49.677,93.661 17.3267,40.9959 31.3227,67.9958 41.9998,80.9997 10.8307,13.0039 23.1613,21.8385 37.1573,26.3385 14.1732,4.49998 36.6731,6.82674 67.4997,6.82674l17.6692 0 0 -72.4958 -24.496 0.496061c-23.1731,0 -38.0077,-3.49605 -44.5038,-10.3346 -6.82674,-7.16926 -17.3267,-28.4999 -31.3345,-63.9919 -13.3346,-34.0038 -25.4999,-57.5076 -36.6613,-70.4997 -11.0078,-13.0039 -28.1692,-24.8385 -51.3305,-35.6692 37.8306,-10.1693 75.1651,-45.3305 111.826,-105.673l96.4957 -160.83 -96.661 0 -95.161 160.334c-19.1692,32.5038 -35.8345,53.8344 -50.0077,64.169 -14.3267,10.3346 -31.3345,15.496 -51.1652,15.496l0 -239.999 -88.0036 0 0 518.998z"
         id="glyph21" /><glyph
         unicode="ы"
         horiz-adv-x="718"
         d="M560.006 518.998l87.9918 0 0 -518.998 -87.9918 0 0 518.998zm-491.006 0l88.0036 0 0 -202.995 111 0c72.4958,0 128.161,-14.0078 167.326,-42.1652 39.1652,-28.1692 58.6651,-67.0037 58.6651,-116.503 0,-43.3345 -16.3228,-80.3383 -48.9919,-111.165 -32.6692,-30.8385 -84.8382,-46.1691 -156.673,-46.1691l-219.33 0 0 518.998zm88.0036 -446.998l92.3264 0c55.4998,0 95.3382,6.83856 119.007,20.5039 23.8346,13.6653 35.6573,34.9959 35.6573,63.9919 0,22.4999 -8.8228,42.5077 -26.3267,60.1769 -17.6692,17.4921 -56.5037,26.3267 -116.669,26.3267l-103.996 0 0 -170.999z"
         id="glyph23" /><glyph
         unicode="з"
         horiz-adv-x="458"
         d="M181.003 235.003l0 68.9997c36.992,0.330707 62.3265,1.8307 75.6611,4.33463 13.4999,2.65747 26.3385,10.3346 38.3384,23.3267 12,13.0039 17.9999,29.1731 17.9999,48.673 0,23.492 -7.83068,42.4959 -23.6692,56.4919 -15.8385,14.1732 -36.1652,21.1653 -61.3344,21.1653 -49.4998,0 -84.165,-28.9959 -103.996,-86.9997l-83.9997 14.0078c25.996,96.661 88.9957,145.003 188.669,145.003 55.3226,0 98.6571,-14.9999 130.157,-45.177 31.4999,-30.1652 47.173,-66.1651 47.173,-108 0,-42.1652 -20.5039,-75.8265 -61.3344,-100.665 26.1613,-13.996 45.6612,-31.8306 58.8305,-53.4919 13.0039,-21.6731 19.4999,-47.3384 19.4999,-77.0076 0,-46.4998 -16.996,-84.165 -50.8344,-113.161 -33.992,-29.0078 -81.3304,-43.4998 -142.334,-43.4998 -118.334,0 -186.991,52.3344 -205.83,156.992l82.9957 17.9999c7.49997,-32.9999 22.6653,-58.6651 45.673,-76.8304 22.996,-18.1653 49.1691,-27.1652 78.8265,-27.1652 29.6692,0 54.3423,8.33855 74.0076,25.1692 19.6653,16.6653 29.492,37.9959 29.492,63.9919 0,20.1731 -6.16533,37.677 -18.496,52.677 -12.3307,14.9999 -25.4999,24.3306 -39.4959,27.992 -14.0078,3.83857 -39.3306,5.66927 -76.0036,5.66927 -2.99999,0 -9.66138,-0.165354 -19.996,-0.496061z"
         id="glyph25" /><glyph
         unicode="ш"
         horiz-adv-x="802"
         d="M68.9997 518.998l88.0036 0 0 -445.994 199.995 0 0 445.994 88.0036 0 0 -445.994 199.995 0 0 445.994 88.0036 0 0 -518.998 -664.001 0 0 518.998z"
         id="glyph27" /><glyph
         unicode="д"
         horiz-adv-x="583"
         d="M134.999 518.998l361.995 0 0 -446.998 56.0077 0 0 -218.999 -71.9997 0 0 146.999 -409.002 0 0 -146.999 -71.9997 0 0 218.999 46.0038 0c61.9958,84.165 91.665,233.172 88.9957,446.998zm73.0036 -73.0036c-6.50785,-168.495 -32.5038,-293.16 -77.9997,-373.995l278.999 0 0 373.995 -200.999 0z"
         id="glyph29" /><glyph
         unicode="В"
         horiz-adv-x="667"
         d="M73.0036 0l0 716.005 268.664 0c54.6612,0 98.5035,-7.16926 131.669,-21.6731 32.9999,-14.5039 58.8305,-36.8266 77.4918,-67.0037 18.8385,-29.9999 28.1692,-61.4998 28.1692,-94.4996 0,-30.4959 -8.32674,-59.3265 -24.8267,-86.3264 -16.4999,-26.9999 -41.5038,-48.8384 -74.9997,-65.5037 43.3345,-12.6614 76.6651,-34.3345 99.8264,-64.9958 23.3385,-30.5078 35.0077,-66.673 35.0077,-108.33 0,-33.6731 -7.16926,-64.8423 -21.3424,-93.6729 -14.1614,-28.8306 -31.6652,-50.9998 -52.4998,-66.6612 -20.8346,-15.5078 -46.9959,-27.3424 -78.3304,-35.3384 -31.4999,-7.99603 -70.0037,-12 -115.665,-12l-273.164 0zm94.9957 415.002l154.83 0c41.9998,0 72.1651,2.83463 90.3422,8.32674 24.1653,7.16926 42.3305,19.1692 54.4958,35.8345 12.1653,16.6653 18.3306,37.4999 18.3306,62.669 0,23.8346 -5.66927,44.8345 -17.1613,62.8344 -11.3385,18.1653 -27.6731,30.6613 -48.8384,37.3345 -21.1653,6.66139 -57.4958,10.0039 -108.826,10.0039l-143.173 0 0 -217.003zm0 -331.003l178.334 0c30.6613,0 52.1691,1.16929 64.6651,3.49605 21.6731,3.83857 40.0038,10.3346 54.673,19.4999 14.6574,9.16532 26.6574,22.4999 36.1652,40.0038 9.49603,17.5039 14.1614,37.6652 14.1614,60.4958 0,26.8345 -6.82674,50.0077 -20.6692,69.8383 -13.6653,19.8306 -32.6574,33.6613 -56.9998,41.6691 -24.1653,7.99603 -59.1612,12 -104.657,12l-165.673 0 0 -247.003z"
         id="glyph31" /><glyph
         unicode="б"
         horiz-adv-x="572"
         d="M443.998 733.001l77.9997 -1.00393c-3.49605,-34.8306 -11.3267,-59.1612 -23.1613,-72.8265 -11.8346,-13.6653 -26.9999,-22.3346 -45.673,-26.3385 -18.6613,-3.82676 -55.3344,-5.83462 -109.83,-5.83462 -72.3304,0 -121.665,-6.9921 -148.003,-20.9999 -26.1613,-13.996 -45.1652,-36.3306 -56.6691,-66.9919 -11.4921,-30.8385 -17.8228,-70.3344 -19.1574,-118.842 22.1574,32.9999 47.9998,57.673 77.669,74.1729 29.492,16.4999 62.9998,24.6613 99.9917,24.6613 68.0076,0 124.334,-23.3267 169.003,-70.0037 44.5038,-46.6652 66.8383,-109.83 66.8383,-189.661 0,-60.4958 -11.1732,-110.173 -33.6731,-148.83 -22.4999,-38.6691 -49.1691,-68.669 -79.9957,-89.8343 -30.6731,-21.1653 -72.6729,-31.6652 -125.669,-31.6652 -61.6651,0 -109.5,13.996 -143.669,42.1652 -34.1692,28.1692 -60.3305,64.169 -78.6611,108 -18.1771,43.8305 -27.3424,120.33 -27.3424,229.168 0,136.83 23.1731,228.991 69.3422,276.495 46.1573,47.5037 117.33,71.1729 213.33,71.1729 59.8344,0 93.661,0.992122 101.834,2.99999 7.99603,1.99606 13.1692,6.66139 15.496,13.996zm-2.99999 -471.163c0,53.8344 -12.8267,97.9957 -38.3266,132.496 -25.4999,34.4999 -61.4998,51.6612 -108,51.6612 -48.5077,0 -85.8422,-18.1653 -112.169,-54.6612 -26.3385,-36.3306 -39.5077,-84.8382 -39.5077,-145.665 0,-59.9998 14.5039,-106.004 43.677,-137.834 28.9959,-31.8306 64.9958,-47.8345 107.492,-47.8345 43.6652,0 79.0036,18.496 106.169,55.3344 27.1652,36.8266 40.6652,85.665 40.6652,146.503z"
         id="glyph33" /><glyph
         unicode="5"
         horiz-adv-x="556"
         d="M41.9998 187.995l91.9957 7.00391c6.83856,-44.8345 22.6653,-78.4958 47.3384,-101.161 24.6613,-22.4999 54.8384,-33.8384 90.3304,-33.8384 42.8384,0 78.6729,16.0039 107.834,47.8345 28.9959,31.9959 43.4998,74.3383 43.4998,127.003 0,50.1612 -13.8307,89.6571 -41.6691,118.665 -27.8267,28.9959 -64.6651,43.4998 -110.492,43.4998 -28.4999,0 -53.9998,-6.50785 -76.6651,-19.4999 -22.4999,-13.0039 -40.1691,-29.8345 -53.173,-50.5037l-82.9957 12 68.9997 368.006 354.991 0 0 -83.9997 -284.822 0 -38.1731 -193.169c42.8384,30.1652 87.8382,45.1652 134.834,45.1652 62.3383,0 115.003,-21.6731 157.83,-65.0076 42.8384,-43.3227 64.3344,-98.9996 64.3344,-166.995 0,-64.8305 -18.8267,-120.838 -56.5037,-167.999 -45.8266,-58.0037 -108.496,-86.9997 -187.83,-86.9997 -64.9958,0 -118.003,18.3306 -159.165,54.8384 -41.1613,36.4959 -64.6651,84.8264 -70.4997,145.157z"
         id="glyph35" /><glyph
         unicode="т"
         horiz-adv-x="457"
         d="M19.996 518.998l419.998 0 0 -73.0036 -165.991 0 0 -445.994 -88.0036 0 0 445.994 -166.003 0 0 73.0036z"
         id="glyph37" /><glyph
         unicode="2"
         horiz-adv-x="556"
         d="M503.006 83.9997l0 -83.9997 -474.01 0c-0.661415,21.1653 2.83463,41.5038 10.3346,61.1691 12.1653,32.1613 31.6652,63.9919 58.4998,95.161 26.8345,31.1692 65.173,67.169 115.003,108 77.5036,63.8383 130.169,114.342 157.665,151.665 27.6731,37.3345 41.5038,72.6729 41.5038,106.004 0,34.8306 -12.5078,64.169 -37.4999,88.1689 -25.0038,23.8346 -57.673,35.8345 -97.8303,35.8345 -42.5077,0 -76.4997,-12.6732 -102,-37.9959 -25.5117,-25.1692 -38.3384,-60.1769 -38.6691,-105l-89.9996 8.99996c6.16533,67.3226 29.492,118.665 69.8265,153.992 40.4998,35.3384 94.665,53.0077 162.838,53.0077 68.669,0 123.165,-19.0039 163.169,-57.1769 40.1573,-38.1613 60.1651,-85.4997 60.1651,-141.826 0,-28.6652 -5.83462,-56.8344 -17.6692,-84.5075 -11.6692,-27.8267 -31.1692,-56.9998 -58.3344,-87.6611 -27.3306,-30.4959 -72.4958,-72.6611 -135.496,-126 -52.8305,-44.3384 -86.8343,-74.3383 -101.834,-90.165 -14.9999,-15.8385 -27.3306,-31.6652 -37.1691,-47.6691l351.506 0z"
         id="glyph39" /><glyph
         unicode="п"
         horiz-adv-x="541"
         d="M65.9997 518.998l409.994 0 0 -518.998 -87.9918 0 0 445.994 -233.999 0 0 -445.994 -88.0036 0 0 518.998z"
         id="glyph41" /><glyph
         unicode="м"
         horiz-adv-x="687"
         d="M68.9997 518.998l135.33 0 137.173 -415.333 151.83 415.333 125.669 0 0 -518.998 -88.0036 0 0 417.837 -152.834 -417.837 -78.6611 0 -144.507 437.833 0 -437.833 -85.9957 0 0 518.998z"
         id="glyph43" /><glyph
         unicode=","
         horiz-adv-x="277"
         d="M88.9957 0l0 100.004 100.004 0 0 -100.004c0,-36.8384 -6.49604,-66.6612 -19.6653,-89.3382 -13.0039,-22.6653 -33.8384,-40.3227 -62.3383,-52.6651l-23.9999 38.0077c18.6732,8.16139 32.3385,20.1613 41.0077,35.8345 8.83461,15.8267 13.8307,38.492 14.8346,68.1611l-49.8423 0z"
         id="glyph45" /><glyph
         unicode="й"
         horiz-adv-x="558"
         d="M65.9997 518.998l88.0036 0 0 -395.833 244.499 395.833 94.4996 0 0 -518.998 -88.0036 0 0 393.329 -244.168 -393.329 -94.8303 0 0 518.998zm304.003 191.999l59.9998 0c-4.83069,-41.1613 -19.8306,-72.8265 -44.8345,-94.8303 -25.0038,-22.1692 -58.1691,-33.1652 -99.6728,-33.1652 -41.6573,0 -74.9997,10.996 -99.8264,32.8345 -24.8385,21.992 -39.8384,53.6691 -44.6691,95.161l59.9998 0c4.49998,-22.4999 13.6653,-39.3306 27.1652,-50.3266 13.4999,-11.1732 31.8306,-16.6653 54.673,-16.6653 26.492,0 46.4998,5.32675 59.9998,16.1574 13.4999,10.6653 22.6653,27.6731 27.1652,50.8344z"
         id="glyph47" /><glyph
         unicode=")"
         horiz-adv-x="332"
         d="M124.003 -209.999l-62.9998 0c97.3343,156.165 145.995,312.495 145.995,469.002 0,61.1691 -7.00391,121.83 -20.9999,181.995 -10.996,48.8384 -26.5038,95.6689 -46.3345,140.669 -12.6614,29.1613 -38.9998,77.9997 -78.6611,146.338l62.9998 0c60.9919,-81.6729 106.169,-163.677 135.496,-246.011 25.0038,-70.8304 37.4999,-144.992 37.4999,-222.495 0,-87.8264 -16.8306,-172.83 -50.5037,-254.834 -33.4959,-82.0036 -74.3265,-153.495 -122.492,-214.665z"
         id="glyph49" /><glyph
         unicode="ч"
         horiz-adv-x="521"
         d="M32.9999 518.998l88.0036 0 0 -97.9957c0,-42.3305 2.49212,-73.0036 7.66532,-92.0075 4.99604,-18.9921 17.1613,-35.6573 36.4959,-49.8305 19.1692,-14.1614 43.3345,-21.1653 72.5076,-21.1653 33.3306,0 76.3225,8.83461 129.33,26.3385l0 234.66 87.9918 0 0 -518.998 -87.9918 0 0 209.503c-54.1651,-17.0078 -104.834,-25.4999 -151.83,-25.4999 -39.5077,0 -74.3383,9.99209 -104.504,29.9999 -30.1652,19.996 -50.6691,44.492 -61.4998,73.4997 -10.8307,28.9959 -16.1692,60.8265 -16.1692,95.6689l0 135.826z"
         id="glyph51" /><glyph
         unicode="г"
         horiz-adv-x="364"
         d="M65.9997 518.998l298.995 0 0 -73.0036 -210.991 0 0 -445.994 -88.0036 0 0 518.998z"
         id="glyph53" /><glyph
         unicode="4"
         horiz-adv-x="556"
         d="M322.995 0l0 170.999 -310.995 0 0 80.9997 326.999 464.006 71.9997 0 0 -464.006 97.0036 0 0 -80.9997 -97.0036 0 0 -170.999 -88.0036 0zm0 251.999l0 322.168 -224.491 -322.168 224.491 0z"
         id="glyph55" /><glyph
         unicode="а"
         horiz-adv-x="556"
         d="M404.998 64.9958c-32.6692,-27.8267 -64.169,-47.3266 -94.3343,-58.8305 -30.1652,-11.5039 -62.4919,-17.1613 -97.1689,-17.1613 -56.9998,0 -100.83,13.8307 -131.492,41.6573 -30.6731,27.6731 -46.0038,63.1769 -46.0038,106.334 0,25.3345 5.83462,48.5077 17.3385,69.5076 11.6574,20.9999 26.8227,37.6652 45.4959,50.3266 18.8267,12.6732 39.8266,22.3346 63.3305,28.8424 17.3385,4.49998 43.4998,8.8228 78.3304,13.1574 71.0076,8.33855 123.507,18.5078 157.003,30.1652 0.330707,12 0.496061,19.6771 0.496061,22.8424 0,35.6573 -8.32674,60.8265 -24.992,75.4958 -22.4999,19.8306 -56.0077,29.6692 -100.334,29.6692 -41.5038,0 -72.1651,-7.33462 -91.8303,-21.8385 -19.8424,-14.4921 -34.3345,-40.1691 -43.8423,-77.1611l-85.9957 12c7.83068,36.8266 20.6692,66.6612 38.6691,89.3264 17.9999,22.6653 43.9959,40.0038 77.9997,52.3344 33.8266,12.1653 73.3344,18.3424 118.003,18.3424 44.3266,0 80.4918,-5.17321 108.33,-15.6732 27.6613,-10.5 48.1652,-23.5038 61.1691,-39.3306 12.9921,-15.8385 22.1574,-35.8345 27.496,-59.9998 2.83463,-14.9999 4.33463,-41.9998 4.33463,-80.8343l0 -116.669c0,-81.4957 1.8307,-133.003 5.4921,-154.83 3.50786,-21.8385 10.8425,-42.6731 21.5078,-62.669l-92.0075 0c-8.8228,18.496 -14.4921,40.1691 -16.996,64.9958zm-7.00391 194.999c-31.9959,-12.9921 -79.9957,-23.9999 -143.999,-32.9999 -36.3306,-5.1614 -61.9958,-10.996 -76.9958,-17.4921 -14.9999,-6.50785 -26.5038,-16.0039 -34.6652,-28.3345 -8.1732,-12.496 -12.3307,-26.3385 -12.3307,-41.6691 0,-23.1613 8.83461,-42.6612 26.6574,-58.1691 17.8346,-15.496 43.8423,-23.3267 78.0115,-23.3267 33.8266,0 63.9919,7.33462 90.4957,22.1574 26.3267,14.6692 45.8266,34.8424 58.1691,60.3423 9.49603,19.8306 14.1614,48.9919 14.1614,87.4957l0.496061 31.9959z"
         id="glyph57" /><glyph
         unicode="с"
         horiz-adv-x="500"
         d="M404.998 190.003l85.9957 -12c-9.49603,-59.173 -33.4959,-105.342 -72.3304,-138.838 -38.8345,-33.4959 -86.669,-50.1612 -143.161,-50.1612 -70.8304,0 -127.842,23.1613 -170.834,69.4958 -43.1691,46.3345 -64.6651,112.665 -64.6651,199.003 0,55.9958 9.33067,104.834 27.8267,146.834 18.5078,41.8345 46.6652,73.3344 84.6729,94.1571 37.8306,21.0117 78.9918,31.5117 123.661,31.5117 56.173,0 102.33,-14.1732 137.999,-42.6731 35.8345,-28.4999 58.8305,-68.9997 68.8344,-121.334l-85.0036 -13.0039c-8.16139,34.8424 -22.4999,61.0037 -43.3227,78.6729 -20.6692,17.5039 -45.673,26.3267 -74.9997,26.3267 -44.3384,0 -80.3383,-15.8267 -108.177,-47.4919 -27.6613,-31.8306 -41.492,-81.8383 -41.492,-150.507 0,-69.6611 13.3346,-120.165 39.992,-151.665 26.8345,-31.4999 61.6769,-47.3266 104.504,-47.3266 34.6652,0 63.4958,10.5 86.5036,31.6652 23.1613,20.9999 37.8306,53.4919 43.9959,97.3343z"
         id="glyph59" /><glyph
         unicode="я"
         horiz-adv-x="541"
         d="M475.002 518.998l0 -518.998 -88.0036 0 0 202.003 -50.6691 0c-30.8267,0 -53.8344,-4.00392 -68.9997,-12.1653 -15.1653,-8.1732 -37.3345,-33.6731 -66.4958,-76.8422l-77.3383 -112.996 -108.992 0 94.9957 139.334c28.9959,42.6612 58.0037,66.6612 86.8343,72.1651 -50.173,6.83856 -87.4957,25.0038 -111.838,54.3305 -24.3306,29.3385 -36.4959,63.1651 -36.4959,101.338 0,45.1652 15.8385,81.6611 47.6691,109.665 31.8306,28.1692 77.9997,42.1652 138.33,42.1652l241.003 0zm-88.0036 -73.0036l-124.996 0c-52.3344,0 -86.1729,-8.16139 -101.338,-24.496 -15.1653,-16.3346 -22.6653,-35.5038 -22.6653,-57.3305 0,-31.0038 11.1614,-53.8344 33.4959,-68.3383 22.1692,-14.4921 61.6769,-21.8267 118.334,-21.8267l97.1689 0 0 171.991z"
         id="glyph61" /><glyph
         unicode="1"
         horiz-adv-x="556"
         d="M371.999 0l-88.0036 0 0 560.336c-21.1653,-20.3385 -48.9919,-40.4998 -83.3264,-60.673 -34.3345,-20.1613 -65.3383,-35.3266 -92.6689,-45.3305l0 85.0036c49.1691,22.996 92.1729,50.9998 128.999,83.9997 36.8384,32.8345 62.9998,64.6651 78.3304,95.6689l56.6691 0 0 -719.005z"
         id="glyph63" /><glyph
         unicode=" "
         horiz-adv-x="277"
         d=""
         id="glyph65" /><glyph
         unicode="о"
         horiz-adv-x="556"
         d="M32.9999 259.499c0,95.8343 26.6692,166.83 80.1611,212.999 44.5038,38.3384 99.0114,57.5076 163.169,57.5076 71.1729,0 129.507,-23.3385 174.838,-70.0037 45.1652,-46.4998 67.8304,-111 67.8304,-193.169 0,-66.6612 -9.99209,-118.996 -29.9999,-157.169 -19.996,-38.1613 -49.1691,-67.8304 -87.4957,-88.9957 -38.1731,-21.1653 -80.0076,-31.6652 -125.173,-31.6652 -72.6611,0 -131.326,23.1613 -176.161,69.6611 -44.8345,46.4998 -67.169,113.503 -67.169,200.834zm89.9996 -0.165354c0,-66.3304 14.5039,-115.996 43.4998,-148.83 29.1731,-32.9999 65.669,-49.4998 109.83,-49.4998 43.6652,0 80.0076,16.4999 109.169,49.6652 28.9959,33.1652 43.4998,83.669 43.4998,151.499 0,64.0037 -14.6692,112.5 -43.8305,145.334 -29.1731,32.9999 -65.5037,49.4998 -108.838,49.4998 -44.1612,0 -80.6572,-16.3346 -109.83,-49.1691 -28.9959,-32.8345 -43.4998,-82.3343 -43.4998,-148.499z"
         id="glyph67" /><glyph
         unicode="Э"
         horiz-adv-x="718"
         d="M301.003 410.998l0 -83.9997 265.995 0c-3.6614,-80.1611 -25.996,-143.326 -66.9919,-189.661 -41.1731,-46.1691 -93.8382,-69.3422 -158.173,-69.3422 -114.165,0 -185.834,60.3423 -214.83,181.003l-91.0036 -23.9999c41.3384,-157.995 140.999,-236.999 299.172,-236.999 112.996,0 197.161,36.3306 252.33,109.169 55.3344,72.6611 81.165,162.165 77.5036,268.664 0,64.9958 -12.3425,124.5 -36.8384,178.169 -24.6613,53.6691 -62.5037,97.8303 -113.338,132.33 -50.8344,34.4999 -111.496,51.673 -181.83,51.673 -74.3265,0 -136.499,-18.3424 -186.495,-55.0037 -50.0077,-36.6731 -83.8343,-87.6729 -101.504,-152.999l92.9996 -23.9999c27.1652,99.3303 92.5036,148.995 196.169,148.995 69.8265,0 124.665,-20.9999 164.326,-63.1651 39.8384,-41.9998 61.6769,-98.9996 65.5037,-170.834l-262.995 0z"
         id="glyph69" /><glyph
         unicode="ь"
         horiz-adv-x="521"
         d="M64.0037 518.998l87.9918 0 0 -202.995 111.342 0c72.6611,0 128.492,-14.0078 167.834,-42.1652 39.1652,-28.1692 58.8305,-67.0037 58.8305,-116.503 0,-43.3345 -16.3346,-80.3383 -49.1691,-111.165 -32.6692,-30.8385 -85.0036,-46.1691 -157.003,-46.1691l-219.826 0 0 518.998zm87.9918 -446.998l92.6689 0c55.8305,0 95.6689,6.83856 119.503,20.5039 23.8346,13.6653 35.8345,34.9959 35.8345,63.9919 0,22.4999 -8.83461,42.5077 -26.5038,60.1769 -17.6692,17.4921 -56.6691,26.3267 -117.165,26.3267l-104.338 0 0 -170.999z"
         id="glyph71" /><glyph
         unicode="л"
         horiz-adv-x="583"
         d="M109.004 518.998l409.002 0 0 -518.502 -88.0036 0 0 445.498 -233.007 0 0 -258.164c0,-60.1651 -1.99606,-99.8264 -5.82281,-119.161 -4.00392,-19.1692 -14.6692,-35.8345 -32.1731,-50.173 -17.6692,-14.3267 -43.0038,-21.496 -76.169,-21.496 -20.492,0 -44.1612,1.33464 -70.8304,3.83857l0 73.1572 38.5038 0c18.1653,0 31.1574,1.84251 38.9998,5.66927 7.83068,3.67321 12.9921,9.67319 15.6614,17.8346 2.50393,8.16139 3.83857,34.6652 3.83857,79.4997l0 341.999z"
         id="glyph73" /><glyph
         unicode="+"
         horiz-adv-x="584"
         d="M250.995 115.996l0 196.003 -194.999 0 0 82.0036 194.999 0 0 194.999 83.0075 0 0 -194.999 194.999 0 0 -82.0036 -194.999 0 0 -196.003 -83.0075 0z"
         id="glyph75" /><glyph
         unicode="и"
         horiz-adv-x="558"
         d="M65.9997 518.998l88.0036 0 0 -395.833 244.499 395.833 94.4996 0 0 -518.998 -88.0036 0 0 393.329 -244.168 -393.329 -94.8303 0 0 518.998z"
         id="glyph77" /><glyph
         unicode="°"
         horiz-adv-x="399"
         d="M61.9958 592.828c0,37.3345 13.3346,69.1769 39.8384,95.6689 26.5038,26.3385 58.3344,39.5077 95.5036,39.5077 37.6652,0 69.6611,-13.1692 96.165,-39.5077 26.3267,-26.492 39.4959,-58.3344 39.4959,-95.6689 0,-37.4999 -13.3346,-69.4958 -39.8266,-95.9996 -26.5038,-26.492 -58.4998,-39.8266 -95.8343,-39.8266 -37.1691,0 -68.9997,13.1692 -95.5036,39.4959 -26.5038,26.5038 -39.8384,58.4998 -39.8384,96.3303zm53.0077 -0.330707c0,-22.8306 7.99603,-42.1652 24.1653,-58.3344 16.1692,-16.1574 35.6692,-24.1653 58.6651,-24.1653 22.4999,0 41.8345,8.00784 58.0037,24.1653 16.1574,16.1692 24.1653,35.5038 24.1653,58.3344 0,22.8306 -8.00784,42.1652 -24.1653,58.3344 -16.1692,16.1692 -35.5038,24.1653 -58.0037,24.1653 -22.996,0 -42.4959,-7.99603 -58.6651,-24.1653 -16.1692,-16.1692 -24.1653,-35.5038 -24.1653,-58.3344z"
         id="glyph79" /><glyph
         unicode="("
         horiz-adv-x="332"
         d="M233.999 -209.999c-48.3305,61.1691 -89.3382,132.661 -122.834,214.665 -33.4959,82.0036 -50.1612,167.007 -50.1612,254.834 0,77.5036 12.496,151.665 37.4999,222.495 29.3267,82.3343 74.4918,164.338 135.496,246.011l62.9998 0c-39.3306,-67.6769 -65.5037,-116.007 -78.165,-145.003 -19.8306,-44.8345 -35.5038,-91.665 -46.8305,-140.503 -14.0078,-60.8265 -20.9999,-121.996 -20.9999,-183.495 0,-156.507 48.6612,-312.837 145.995,-469.002l-62.9998 0z"
         id="glyph81" /><glyph
         unicode="е"
         horiz-adv-x="556"
         d="M419.998 167.999l91.0036 -12c-14.1732,-52.8305 -40.6652,-94.0036 -79.3343,-123.165 -38.6691,-29.1731 -88.0036,-43.8305 -148.169,-43.8305 -75.6611,0 -135.661,23.3267 -179.999,69.9919 -44.3384,46.4998 -66.4958,112.003 -66.4958,196.169 0,86.9997 22.3346,154.665 67.1572,202.665 44.8345,48.177 103.004,72.1769 174.507,72.1769 69.1651,0 125.669,-23.5038 169.499,-70.6769 43.8305,-47.1612 65.8344,-113.492 65.8344,-198.991 0,-5.17321 -0.165354,-13.0039 -0.496061,-23.3385l-386.502 0c3.3307,-56.8344 19.3346,-100.5 48.3305,-130.665 28.8306,-30.1652 64.9958,-45.3305 108.165,-45.3305 32.1731,0 59.6691,8.49209 82.3343,25.4999 22.8306,16.996 40.8305,44.1612 54.1651,81.4957zm-287.999 140.999l289.003 0c-3.83857,43.6652 -14.9999,76.3343 -33.1652,98.1728 -27.8385,33.8266 -64.169,50.8226 -108.673,50.8226 -40.3345,0 -74.1611,-13.4999 -101.669,-40.4998 -27.3306,-26.9999 -42.4959,-63.1651 -45.4959,-108.496z"
         id="glyph83" /><glyph
         unicode="ц"
         horiz-adv-x="572"
         d="M67.0037 518.998l87.9918 0 0 -446.998 244.003 0 0 446.998 88.0036 0 0 -446.998 56.9998 0 0 -218.999 -71.9997 0 0 146.999 -404.998 0 0 518.998z"
         id="glyph85" /><glyph
         unicode="6"
         horiz-adv-x="556"
         d="M499.002 541.002l-86.9997 -7.00391c-7.83068,34.4999 -19.0039,59.6691 -33.5077,75.3304 -23.8227,25.1692 -53.3266,37.677 -88.3225,37.677 -28.1692,0 -53.173,-7.84249 -74.669,-23.5038 -27.6731,-20.1731 -49.3345,-49.4998 -65.5037,-88.1689 -16.0039,-38.8345 -24.3306,-94.0036 -25.0038,-165.495 21.1653,32.1613 47.173,56.1612 77.8343,71.6572 30.6731,15.6732 62.669,23.5038 96.3421,23.5038 58.6651,0 108.661,-21.6613 149.999,-64.8305 41.1613,-43.1691 61.8305,-98.8343 61.8305,-167.338 0,-44.9998 -9.67319,-86.669 -29.0078,-125.326 -19.4999,-38.6691 -45.9919,-68.173 -79.9957,-88.665 -33.8266,-20.5039 -72.3304,-30.8385 -115.334,-30.8385 -73.169,0 -133.003,26.9999 -179.326,80.8343 -46.1691,53.8344 -69.3422,142.665 -69.3422,266.338 0,138.33 25.6653,238.995 76.8422,301.83 44.6573,54.6612 104.834,82.0036 180.661,82.0036 56.3384,0 102.673,-15.8385 138.673,-47.3384 35.9999,-31.4999 57.6612,-74.9997 64.8305,-130.665zm-359.999 -308.999c0,-30.3306 6.49604,-59.3383 19.3346,-86.9997 12.8267,-27.6731 30.8267,-48.673 53.6573,-63.1651 23.0078,-14.5039 47.3384,-21.8385 73.169,-21.8385 37.4999,0 69.5076,14.9999 95.9996,44.9998 26.5038,29.9999 39.8384,70.6651 39.8384,122.173 0,49.4998 -13.1692,88.4997 -39.3306,117 -26.1731,28.4999 -59.5037,42.8266 -100.004,42.8266 -39.6731,0 -73.4997,-14.3267 -101.173,-42.8266 -27.6613,-28.4999 -41.492,-65.8344 -41.492,-112.169z"
         id="glyph87" /><glyph
         unicode="С"
         horiz-adv-x="722"
         d="M587.006 251.172l94.9957 -23.9999c-19.8306,-77.8343 -55.4998,-137.007 -106.996,-177.838 -51.5077,-40.8305 -114.507,-61.3344 -189.011,-61.3344 -76.9958,0 -139.665,15.6614 -187.995,47.1612 -48.3305,31.3345 -85.0036,76.8422 -110.161,136.334 -25.1692,59.6691 -37.8424,123.507 -37.8424,191.834 0,74.5036 14.1732,139.499 42.6731,194.999 28.4999,55.4998 68.9997,97.6768 121.5,126.507 52.4998,28.8306 110.326,43.1691 173.326,43.1691 71.669,0 131.834,-18.1771 180.507,-54.673 48.8266,-36.4959 82.8304,-87.6611 102,-153.661l-92.9996 -22.0039c-16.4999,52.0037 -40.6652,89.9996 -72.1651,113.669 -31.4999,23.8346 -71.1729,35.6692 -119.007,35.6692 -54.8266,0 -100.83,-13.1692 -137.657,-39.5077 -36.8384,-26.3267 -62.8344,-61.8305 -77.669,-106.169 -14.9999,-44.492 -22.4999,-90.3304 -22.4999,-137.492 0,-60.8383 8.83461,-114 26.492,-159.342 17.6692,-45.4959 45.177,-79.3343 82.4997,-101.834 37.3345,-22.4999 77.669,-33.6613 121.169,-33.6613 53.0077,0 97.665,15.3306 134.338,45.8384 36.6613,30.6613 61.4998,75.9918 74.5036,136.334z"
         id="glyph89" /><glyph
         unicode="у"
         horiz-adv-x="500"
         d="M61.9958 -199.499l-9.99209 81.3304c19.3346,-5.1614 35.9999,-7.83068 50.3266,-7.83068 19.6653,0 35.3384,3.3307 47.0077,9.83854 11.8228,6.49604 21.496,15.6614 28.9959,27.3306 5.50392,8.83461 14.5039,30.6613 26.8345,65.669 1.66535,4.83069 4.16927,12 7.83068,21.496l-196.995 520.663 93.9918 0 108.342 -299.668c14.1614,-37.8306 26.6574,-77.8343 37.8306,-119.834 10.1693,39.5077 22.1692,78.5076 36.1652,116.834l110.669 302.668 87.8264 0 -196.157 -527.998c-21.1771,-56.8344 -37.677,-95.8343 -49.4998,-117.33 -15.6732,-28.8306 -33.6731,-50.0077 -53.8344,-63.5076 -20.3385,-13.4999 -44.5038,-20.1613 -72.5076,-20.1613 -16.996,0 -35.9999,3.49605 -56.8344,10.5z"
         id="glyph91" /><glyph
         unicode="в"
         horiz-adv-x="531"
         d="M65.9997 518.998l202.499 0c49.6652,0 86.669,-4.16927 111,-12.496 24.1653,-8.33855 44.9998,-23.5038 62.3383,-45.673 17.4921,-22.3346 26.1613,-48.8266 26.1613,-79.8304 0,-24.8267 -5.1614,-46.4998 -15.3306,-64.8305 -10.3346,-18.496 -25.6653,-34.0038 -46.3345,-46.3345 24.3306,-8.16139 44.5038,-23.3385 60.6612,-45.6612 16.0039,-22.1692 23.9999,-48.673 23.9999,-79.169 -3.16534,-49.1691 -20.8228,-85.665 -52.6651,-109.334 -31.8306,-23.8346 -78.165,-35.6692 -138.826,-35.6692l-233.503 0 0 518.998zm88.0036 -218.999l93.3303 0c37.1691,0 62.8344,1.99606 76.6651,5.83462 13.996,4.00392 26.5038,11.8346 37.4999,23.8346 10.996,11.8346 16.4999,26.1613 16.4999,42.8266 0,27.5078 -9.66138,46.4998 -28.8306,57.3423 -19.3346,10.8307 -52.3344,16.1574 -98.9996,16.1574l-96.165 0 0 -145.995zm0 -227.999l115.5 0c49.6652,0 83.8343,5.83462 102.33,17.3385 18.496,11.6574 28.1692,31.4999 29.1613,59.9998 0,16.4999 -5.32675,31.9959 -15.9921,46.1573 -10.8307,14.1732 -24.8385,23.1731 -41.9998,26.8345 -17.1732,3.83857 -44.8345,5.66927 -82.8304,5.66927l-106.169 0 0 -155.999z"
         id="glyph93" /><glyph
         unicode="А"
         horiz-adv-x="667"
         d="M-1.49999 0l274.664 716.005 104.173 0 291.495 -716.005 -107.834 0 -82.8304 217.003 -301.499 0 -77.669 -217.003 -100.5 0zm205.995 293.999l244.003 0 -74.669 198.495c-22.4999,60.3423 -39.4959,110.173 -51.3305,149.503 -9.82673,-46.6652 -22.996,-92.4918 -39.4959,-137.834l-78.5076 -210.165z"
         id="glyph95" /></font><font
       id="FontID0"
       horiz-adv-x="644"
       font-variant="normal"
       font-style="normal"
       font-weight="400"
       horiz-origin-x="0"
       horiz-origin-y="0"
       vert-origin-x="45"
       vert-origin-y="90"
       vert-adv-y="90"
       style="font-style:normal;font-variant:normal;font-weight:400"><font-face
         font-family="Segoe UI"
         id="font-face98"><font-face-src><font-face-name
             name="Segoe UI" /></font-face-src></font-face><missing-glyph
         id="missing-glyph100"><path
           d="M0 0z"
           id="path102" /></missing-glyph><glyph
         unicode="р"
         horiz-adv-x="587"
         d="M163.169 72.3304l-2.00787 0 0 -302.326 -80.1611 0 0 730.001 80.1611 0 0 -87.8382 2.00787 0c39.3306,66.3304 97.0036,99.4957 172.83,99.4957 64.3344,0 114.673,-22.3346 150.838,-67.169 36.1652,-44.6573 54.1651,-104.657 54.1651,-179.822 0,-83.669 -20.3385,-150.673 -61.0037,-201.011 -40.6652,-50.1612 -96.3303,-75.3304 -166.995,-75.3304 -64.8305,0 -114.673,28.0038 -149.834,83.9997zm-2.00787 201.672l0 -69.8383c0,-41.3266 13.3346,-76.4997 40.3345,-105.33 26.8345,-28.8306 60.8383,-43.1691 102.177,-43.1691 48.4959,0 86.4918,18.496 114,55.6651 27.496,37.1691 41.3266,88.665 41.3266,154.842 0,55.6651 -12.8267,99.165 -38.6691,130.83 -25.6653,31.4999 -60.4958,47.3266 -104.326,47.3266 -46.6652,0 -83.9997,-16.1574 -112.334,-48.4959 -28.3345,-32.5038 -42.5077,-73.0036 -42.5077,-121.83z"
         id="glyph104" /><glyph
         unicode="ю"
         horiz-adv-x="812"
         d="M302.668 226.995l-141.507 0 0 -226.995 -80.1611 0 0 500.006 80.1611 0 0 -205.003 142.511 0c8.49209,68.3265 33.6613,121.5 75.4958,159.661 41.8345,38.0077 95.5036,56.9998 160.83,56.9998 71.3383,0 126.673,-22.3346 165.838,-67.3344 39.1652,-44.9998 58.8305,-108.992 58.8305,-192.33 0,-81.165 -20.9999,-145.334 -62.9998,-192.661 -41.9998,-47.3384 -99.8382,-71.0076 -173.338,-71.0076 -69.3304,0 -123.496,20.8346 -162.33,62.669 -38.9998,41.8345 -59.9998,100.5 -63.3305,175.995zm230.503 217.334c-99.5075,0 -149.338,-65.1612 -149.338,-195.33 0,-128.834 50.5037,-193.334 151.334,-193.334 98.6689,0 148.003,64.4997 148.003,193.334 0,130.169 -50.0077,195.33 -149.999,195.33z"
         id="glyph106" /><glyph
         unicode="н"
         horiz-adv-x="577"
         d="M496.167 0l-80.1729 0 0 226.995 -254.834 0 0 -226.995 -80.1611 0 0 500.006 80.1611 0 0 -205.003 254.834 0 0 205.003 80.1729 0 0 -500.006z"
         id="glyph108" /><glyph
         unicode="-"
         horiz-adv-x="399"
         d="M337.003 247.003l-266.668 0 0 62.9998 266.668 0 0 -62.9998z"
         id="glyph110" /><glyph
         unicode="к"
         horiz-adv-x="496"
         d="M496.167 0l-112.334 0 -220.664 240.164 -2.00787 0 0 -240.164 -80.1611 0 0 500.006 80.1611 0 0 -229.003 2.00787 0 209.834 229.003 105 0 -231.838 -241.168 250.003 -258.838z"
         id="glyph112" /><glyph
         unicode="з"
         horiz-adv-x="445"
         d="M38.9998 14.1614l0 78.6729c43.6652,-24.496 94.665,-36.6731 152.834,-36.6731 88.3343,0 132.33,28.0038 132.33,83.9997 0,55.3344 -48.3305,83.0075 -144.992,83.0075l-49.3345 0 0 67.8304 46.9959 0c84.8382,0 127.334,26.3385 127.334,79.169 0,22.4999 -9.67319,40.3345 -29.3385,53.6691 -19.4999,13.3346 -46.1573,19.996 -79.9957,19.996 -48.4959,0 -97.1689,-12.1653 -145.995,-36.6613l0 74.8225c55.3226,20.1731 106.157,30.177 152.326,30.177 121.83,0 182.669,-44.6691 182.669,-134.173 0,-28.9959 -8.99996,-53.9998 -27.1652,-74.9997 -17.9999,-20.9999 -43.3345,-34.9959 -75.8383,-41.8345l0 -2.32676c37.0038,-2.99999 66.8383,-15.5078 89.3382,-37.6652 22.3346,-22.1692 33.6613,-50.173 33.6613,-84.0115 0,-45.4959 -18.3306,-81.8264 -55.1573,-108.826 -36.8384,-26.9999 -87.5075,-40.4998 -151.842,-40.4998 -68.669,0 -121.334,8.83461 -157.83,26.3267z"
         id="glyph114" /><glyph
         unicode="д"
         horiz-adv-x="546"
         d="M517.167 -182.173l-67.9958 0 0 182.173 -372.01 0 0 -182.173 -68.3265 0 0 250.003 44.3266 0c85.3343,123.165 128.669,267.164 130.003,432.175l259.664 0 0 -432.175 74.3383 0 0 -250.003zm-154.334 250.003l0 364.333 -110.834 0c-8.83461,-134.834 -46.8305,-256.168 -113.834,-364.333l224.668 0z"
         id="glyph116" /><glyph
         unicode="т"
         horiz-adv-x="410"
         d="M394.995 431.668l-149.822 0 0 -431.668 -80.1729 0 0 431.668 -150.33 0 0 68.3383 380.325 0 0 -68.3383z"
         id="glyph118" /><glyph
         unicode="п"
         horiz-adv-x="577"
         d="M496.167 0l-80.1729 0 0 431.668 -254.834 0 0 -431.668 -80.1611 0 0 500.006 415.168 0 0 -500.006z"
         id="glyph120" /><glyph
         unicode="м"
         horiz-adv-x="702"
         d="M621.163 0l-79.1572 0 0 412.168c-7.16926,-20.8346 -18.1771,-51.4959 -33.177,-91.8303l-124.996 -320.337 -71.8344 0 -128.834 320.337c-6.82674,17.1613 -17.9999,47.8345 -33.3306,91.8303l0 -412.168 -68.8344 0 0 500.006 102.165 0 131.834 -326.172c9.33067,-23.8346 21.496,-56.6691 35.9999,-98.6689l35.6692 96.6728 127.996 328.168 106.5 0 0 -500.006z"
         id="glyph122" /><glyph
         unicode=")"
         horiz-adv-x="301"
         d="M82.9957 -159.165l-71.3265 0c101.669,121.665 152.326,264.164 152.326,427.168 0,164.491 -50.9998,308.503 -153.165,432.164l72.1651 0c101.504,-119.161 152.338,-263.503 152.338,-433.002 0,-169.003 -50.8344,-311.16 -152.338,-426.329z"
         id="glyph124" /><glyph
         unicode="ж"
         horiz-adv-x="746"
         d="M745.166 0l-108.496 0 -223.499 247.003 -2.00787 0 0 -247.003 -76.169 0 0 247.003 -1.99606 0 -224.161 -247.003 -106.842 0 248.007 257.834 -232.842 242.172 102 0 213.838 -233.834 1.99606 0 0 233.834 76.169 0 0 -233.834 2.00787 0 213.826 233.834 103.004 0 -233.834 -242.172 248.999 -257.834z"
         id="glyph126" /><glyph
         unicode="г"
         horiz-adv-x="382"
         d="M358.829 431.668l-197.669 0 0 -431.668 -80.1611 0 0 500.006 277.83 0 0 -68.3383z"
         id="glyph128" /><glyph
         unicode="ф"
         horiz-adv-x="686"
         d="M378.837 -11.6692l0 -223.664 -72.1651 0 0 223.664 -15.6732 0c-72.8265,0 -131.834,23.5038 -176.669,70.8304 -44.9998,47.173 -67.4997,108.838 -67.4997,185.007 0,80.9997 22.6653,145.83 68.173,194.503 45.3305,48.6612 105.33,72.9918 179.999,72.9918l11.6692 0 0 200.338 72.1651 0 0 -200.338 10.8307 0c75.1651,0 135.496,-24.1653 180.838,-72.4958 45.4959,-48.3305 68.1611,-113.338 68.1611,-194.999 0,-76.169 -22.3346,-137.834 -66.8383,-185.007 -44.6573,-47.3266 -103.157,-70.8304 -175.83,-70.8304l-17.1613 0zm0 455.998l0 -388.664 10.8307 0c50.8344,0 91.3343,17.1732 121.5,51.4959 30.3306,34.3345 45.4959,81.0115 45.4959,139.842 0,61.9958 -14.9999,110.326 -44.6573,145.169 -29.8345,34.8306 -69.8383,52.1573 -119.834,52.1573l-13.3346 0zm-72.1651 -388.664l0 388.664 -11.6692 0c-50.173,0 -90.3304,-17.4921 -120.673,-52.4998 -30.3306,-34.9959 -45.4959,-83.1611 -45.4959,-144.826 0,-58.1691 15.3306,-104.669 45.6612,-139.334 30.5078,-34.6652 71.3383,-52.0037 122.338,-52.0037l9.83854 0z"
         id="glyph130" /><glyph
         unicode="с"
         horiz-adv-x="461"
         d="M421.829 22.996c-38.3266,-23.1613 -83.9997,-34.6652 -136.665,-34.6652 -71.3265,0 -128.834,23.1731 -172.665,69.5076 -43.6652,46.3227 -65.669,106.5 -65.669,180.495 0,82.3343 23.6692,148.499 70.8304,198.495 47.173,49.8423 110.173,74.8344 189.011,74.8344 43.9959,0 82.665,-7.99603 116.161,-24.3306l0 -82.0036c-37.1691,26.0078 -76.8304,38.9998 -119.161,38.9998 -50.9998,0 -92.9996,-18.3306 -125.669,-54.9919 -32.6692,-36.5077 -49.1691,-84.6729 -49.1691,-144.165 0,-58.6769 15.496,-104.834 46.1691,-138.673 30.8267,-33.8384 71.9997,-50.8344 123.826,-50.8344 43.6652,0 84.6729,14.5039 123,43.4998l0 -76.169z"
         id="glyph132" /><glyph
         unicode="а"
         horiz-adv-x="508"
         d="M439.002 0l-80.1729 0 0 78.165 -1.8307 0c-34.8306,-59.9998 -86.1611,-89.8343 -153.826,-89.8343 -49.8423,0 -88.8422,13.1692 -117.011,39.5077 -28.1574,26.3267 -42.1652,61.3226 -42.1652,105 0,93.3303 55.0037,147.826 164.999,162.991l149.834 20.9999c0,85.0036 -34.3345,127.499 -102.992,127.499 -60.1651,0 -114.507,-20.492 -163.003,-61.4998l0 82.0036c49.1691,31.3345 105.661,46.8305 169.83,46.8305 117.507,0 176.338,-62.1612 176.338,-186.495l0 -325.168zm-80.1729 253.003l-120.496 -16.6653c-37.1691,-5.17321 -65.1612,-14.3385 -83.9997,-27.6731 -18.8385,-13.1692 -28.3345,-36.4959 -28.3345,-70.0037 0,-24.3306 8.66926,-44.3266 26.1613,-59.8226 17.3385,-15.5078 40.5117,-23.1731 69.5076,-23.1731 39.6613,0 72.4958,13.996 98.3264,41.6691 26.0078,27.8267 38.8345,63.1651 38.8345,105.838l0 49.8305z"
         id="glyph134" /><glyph
         unicode="о"
         horiz-adv-x="586"
         d="M289.995 -11.6692c-73.8304,0 -132.826,23.3385 -176.999,70.0037 -43.9959,46.6652 -66.1651,108.661 -66.1651,185.834 0,83.9997 23.0078,149.503 68.8344,196.83 46.0038,47.173 108,70.6651 186.165,70.6651 74.5036,0 132.673,-22.8306 174.507,-68.8344 41.8345,-45.8266 62.669,-109.5 62.669,-190.83 0,-79.8304 -22.4999,-143.669 -67.5115,-191.669 -45.1652,-47.9998 -105.661,-71.9997 -181.499,-71.9997zm5.83462 455.998c-51.3305,0 -91.9957,-17.4921 -121.996,-52.4998 -29.9999,-34.9959 -44.9998,-83.1611 -44.9998,-144.826 0,-59.173 15.1653,-105.838 45.4959,-140.007 30.3424,-34.1573 70.8422,-51.3305 121.5,-51.3305 51.8384,0 91.665,16.8306 119.503,50.3384 27.8385,33.4959 41.6691,81.165 41.6691,142.996 0,62.5037 -13.8307,110.669 -41.6691,144.495 -27.8385,34.0038 -67.6651,50.8344 -119.503,50.8344z"
         id="glyph136" /><glyph
         unicode=" "
         horiz-adv-x="274"
         d=""
         id="glyph138" /><glyph
         unicode="ь"
         horiz-adv-x="503"
         d="M80.9997 0l0 500.006 80.1611 0 0 -191.834 134.669 0c51.1652,0 91.8422,-13.3346 121.842,-40.1691 30.1652,-26.6692 45.1652,-63.8383 45.1652,-111.673 0,-48.3305 -14.9999,-86.3264 -45.3423,-114.33 -30.3306,-28.0038 -68.4919,-41.9998 -114.826,-41.9998l-221.668 0zm80.1611 239.338l0 -170.999 120.177 0c66.3304,0 99.4957,29.3267 99.4957,87.9918 0,55.3344 -33.4959,83.0075 -100.5,83.0075l-119.173 0z"
         id="glyph140" /><glyph
         unicode="л"
         horiz-adv-x="526"
         d="M445.829 0l-79.665 0 0 432.164 -116.161 0c-13.3346,-161.834 -36.1652,-275.503 -68.669,-340.829 -32.3385,-65.5037 -75.8383,-98.1728 -130.499,-98.1728 -16.6653,0 -31.0038,2.33857 -43.0038,6.83856l0 68.8344c11.3385,-5.83462 23.6692,-8.83461 37.1691,-8.83461 71.5037,0 117.661,146.669 138.165,440.006l262.664 0 0 -500.006z"
         id="glyph142" /><glyph
         unicode="и"
         horiz-adv-x="581"
         d="M500.006 0l-72.3422 0 0 398.998c-7.16926,-13.996 -17.9999,-33.8266 -32.6692,-59.1612l-230.999 -339.837 -82.9957 0 0 500.006 73.3344 0 0 -394.002c3.82676,9.33067 12.3307,25.4999 25.3345,48.3305l237.33 345.672 83.0075 0 0 -500.006z"
         id="glyph144" /><glyph
         unicode="("
         horiz-adv-x="301"
         d="M290.999 -159.165l-71.3265 0c-100.842,115.169 -151.334,257.326 -151.334,426.329 0,169.499 50.4919,313.841 151.334,433.002l72.3304 0c-102.165,-123.661 -153.342,-267.672 -153.342,-432.164 0,-163.003 50.8344,-305.503 152.338,-427.168z"
         id="glyph146" /><glyph
         unicode="е"
         horiz-adv-x="523"
         d="M482.833 229.995l-352.995 0c1.32283,-55.6651 16.3228,-98.6571 44.9998,-128.999 28.6652,-30.1652 67.9958,-45.3305 118.157,-45.3305 56.3384,0 108,18.496 155.338,55.6651l0 -75.1651c-43.9959,-31.9959 -102.165,-47.8345 -174.33,-47.8345 -70.6651,0 -126.165,22.6653 -166.499,68.0076 -40.4998,45.4959 -60.673,109.322 -60.673,191.657 0,77.8343 22.1692,141.177 66.1651,190.169 44.1731,49.0037 98.9996,73.4997 164.338,73.4997 65.5037,0 115.996,-21.1653 151.83,-63.4958 35.8345,-42.1652 53.6691,-100.996 53.6691,-176.173l0 -41.9998zm-82.0036 67.8423c-0.330707,46.1573 -11.4921,82.1572 -33.3306,108 -22.0039,25.6653 -52.4998,38.492 -91.665,38.492 -37.6652,0 -69.8383,-13.4999 -96.165,-40.4998 -26.3385,-26.9999 -42.6731,-62.3265 -48.8384,-105.992l269.999 0z"
         id="glyph148" /><glyph
         unicode="у"
         horiz-adv-x="483"
         d="M478.994 500.006l-229.995 -580.002c-40.9959,-103.677 -98.6689,-155.338 -172.83,-155.338 -20.8346,0 -38.1731,2.16141 -52.1691,6.33068l0 71.8344c17.1613,-5.83462 32.9999,-8.83461 47.3384,-8.83461 40.3227,0 70.6651,23.9999 90.8264,72.1651l40.0038 94.8421 -195.33 499.002 88.8304 0 135.33 -384.837c1.66535,-4.83069 4.99604,-17.5039 10.1693,-38.0077l2.99999 0c1.66535,7.84249 4.83069,20.1731 9.66138,37.1691l142.169 385.676 82.9957 0z"
         id="glyph150" /><glyph
         unicode="в"
         horiz-adv-x="529"
         d="M80.9997 0l0 500.006 217.83 0c49.1691,0 88.0036,-10.8425 116.503,-32.6692 28.4999,-21.8385 42.6612,-51.673 42.6612,-89.3382 0,-64.8305 -31.8306,-104.161 -95.6571,-118.169 76.4997,-9.82673 114.661,-48.3305 114.661,-115.83 0,-40.6652 -15.6614,-74.8344 -46.9959,-102.496 -31.4999,-27.6731 -70.4997,-41.5038 -117,-41.5038l-232.003 0zm80.1611 431.668l0 -140.669 120.177 0c64.3344,0 96.661,25.1692 96.661,75.1651 0,43.6652 -28.9959,65.5037 -86.9997,65.5037l-129.838 0zm0 -208.995l0 -154.334 138.673 0c64.8305,0 97.1689,26.1613 97.1689,78.6611 0,50.5037 -36.3306,75.6729 -108.838,75.6729l-127.003 0z"
         id="glyph152" /></font>
</defs>
</svg>
